<?xml version="1.0" standalone="no"?>
<!DOCTYPE svg PUBLIC "-//W3C//DTD SVG 1.1//EN" "http://www.w3.org/Graphics/SVG/1.1/DTD/svg11.dtd" >
<svg xmlns="http://www.w3.org/2000/svg">
<metadata></metadata>
<defs>
<font id="typographicaregular" horiz-adv-x="1223" >
<font-face units-per-em="2048" ascent="1638" descent="-410" />
<missing-glyph horiz-adv-x="266" />
<glyph unicode="&#xfb03;" horiz-adv-x="1679" d="M-5 1025h177q0 186 64 286q64 99 180 146q114 46 276 46l2 -296q-121 1 -162 -35q-41 -38 -41 -147h251q0 186 64 286q64 99 180 146q108 33 276 46l354 -3v-286h-352v-7q-121 1 -162 -35q-41 -38 -41 -147l567 -2v-1022h-319v750h-248v-750h-319v750h-251v-750h-319v750 h-105z" />
<glyph unicode="&#xfb04;" horiz-adv-x="1583" d="M0 1025h170q0 186 64 286q64 99 180 146q114 46 276 46l-1 -288q-119 -8 -159 -43q-40 -36 -46 -149h206q0 178 64 278q64 99 180 146q114 46 276 46v-2h323v-1492l-326 -1v743h-198v-741h-319v750l-201 -1v-748h-319v750h-98zM1009 1020h198v185q-117 -8 -157 -43 q-41 -38 -41 -142z" />
<glyph unicode="&#xd;" horiz-adv-x="508" />
<glyph horiz-adv-x="1231" />
<glyph horiz-adv-x="1231" />
<glyph unicode=" "  horiz-adv-x="266" />
<glyph unicode="&#x09;" horiz-adv-x="266" />
<glyph unicode="&#xa0;" horiz-adv-x="266" />
<glyph unicode="!" horiz-adv-x="462" d="M0 1420h412l-50 -977h-312zM21 164q0 49 25 89q26 42 67 65q42 24 89 24t89 -24q41 -25 66 -66q25 -40 25 -88q0 -80 -52 -132q-53 -53 -128 -53q-50 0 -91 24q-42 24 -66 67q-24 44 -24 94z" />
<glyph unicode="&#x22;" horiz-adv-x="670" d="M0 858v561h245v-561h-245zM375 858v561h245v-561h-245z" />
<glyph unicode="#" horiz-adv-x="1066" d="M0 408l9 196h194l33 240h-174l8 196h193l55 379h205l-56 -379h187l55 379h205l-51 -379h153l-8 -196h-176l-37 -240h160l-8 -196h-177l-55 -408h-205l56 408h-187l-55 -408h-205l56 408h-175zM408 604h186l33 240h-186z" />
<glyph unicode="$" horiz-adv-x="831" d="M0 232l164 232q77 -98 198 -98q46 0 90 26q43 25 43 75q0 57 -81 93l-42 17l-42 18q-49 21 -87 36q-90 36 -154 112q-65 77 -65 223q0 112 56 198q56 85 144 128q36 19 73 28v63h237v-63q33 -7 61 -19q89 -36 162 -106l-148 -212q-53 50 -94 73q-40 21 -95 21 q-39 0 -73 -25q-36 -25 -36 -64q0 -56 80 -91q95 -41 170 -70q88 -34 155 -112q65 -79 65 -228q0 -192 -116 -296q-58 -52 -131 -78v-80h-237v59q-57 7 -123 31q-96 34 -174 109z" />
<glyph unicode="%" horiz-adv-x="1216" d="M0 1115q0 118 83 201q82 82 200 82t200 -82q83 -83 83 -201q0 -117 -83 -200t-200 -83t-200 83t-83 200zM116 0l710 1419h162l-713 -1419h-159zM170 1115q0 -47 33 -80t80 -33t80 33t33 80t-33 80t-80 33t-80 -33t-33 -80zM600 307q0 118 83 201q82 82 200 82t200 -82 q83 -83 83 -201q0 -117 -83 -200t-200 -83t-200 83t-83 200zM770 307q0 -47 33 -80t80 -33t80 33t33 80t-33 80t-80 33t-80 -33t-33 -80z" />
<glyph unicode="&#x26;" horiz-adv-x="1102" d="M0 422q0 68 24 132q25 65 69 117q45 51 106 85q-72 63 -103 126q-32 66 -32 154q0 126 62 223q63 94 167 144q102 49 227 49q159 0 292 -67q16 -8 31 -17l-197 -220q-7 3 -14 5q-29 10 -65 10q-174 -6 -174 -127q1 -126 268 -134v120h299v-120h92v-299h-92v-606h-409 q-105 0 -204 26q-95 25 -177 82q-77 54 -125 142q-45 86 -45 175zM358 459q0 -160 195 -160h108v304h-126v1q-71 -5 -117 -27q-60 -30 -60 -118z" />
<glyph unicode="'" horiz-adv-x="295" d="M0 858v561h245v-561h-245z" />
<glyph unicode="(" horiz-adv-x="615" d="M0 545q0 199 44 389q44 188 135 357q89 168 223 311l163 -156q-103 -112 -178 -250q-75 -140 -114 -292q-39 -154 -39 -304q0 -117 21 -242q21 -127 61 -237q42 -118 101 -215q62 -104 146 -193l-159 -162q-189 204 -296 464q-108 263 -108 530z" />
<glyph unicode=")" horiz-adv-x="615" d="M0 -293q80 87 141 186q59 94 104 207q41 103 64 223q22 113 22 230q0 124 -20 246q-19 119 -60 231q-39 109 -103 218q-61 104 -146 192l159 162q122 -131 215 -294q90 -161 140 -340q49 -177 49 -360q0 -148 -24 -291q-24 -141 -74 -278q-50 -134 -126 -257t-178 -231z " />
<glyph unicode="*" horiz-adv-x="693" d="M0 1378v153h137l-99 99l107 108l100 -100v141h152v-141l98 98l108 -108l-97 -97h137v-153h-138l100 -100l-108 -107l-100 100v-141h-152v140l-97 -97l-108 108l97 97h-137z" />
<glyph unicode="+" horiz-adv-x="1072" d="M0 841l72 -274h303v-392h270v392h377l-71 274h-306v394h-270v-394h-375z" />
<glyph unicode="," horiz-adv-x="403" d="M0 188v125h353v-114q-24 -252 -281 -297l-1 99q46 12 77 28q-55 7 -97 48q-46 47 -51 111z" />
<glyph unicode="-" horiz-adv-x="682" d="M0 567h632v274h-632v-274z" />
<glyph unicode="." horiz-adv-x="411" d="M0 158q0 49 25 89q26 42 67 65q42 24 89 24t89 -24q41 -25 66 -66q25 -40 25 -88q0 -80 -52 -132q-53 -53 -128 -53q-50 0 -91 24q-42 24 -66 67q-24 44 -24 94z" />
<glyph unicode="/" horiz-adv-x="660" d="M0 -33l368 1485h242l-371 -1485h-239z" />
<glyph unicode="0" horiz-adv-x="1088" d="M0 709q0 130 23 259q23 125 81 237q59 113 161 180q101 67 251 67q152 0 256 -68q104 -67 162 -177q57 -109 81 -237q23 -130 23 -261q0 -179 -45 -347q-45 -169 -161 -282q-118 -113 -316 -113q-148 0 -251 68q-102 67 -161 180q-58 113 -81 237q-23 127 -23 257z M330 709q0 -126 17 -222q17 -95 58 -148q41 -54 111 -54q193 0 193 424t-193 424q-70 0 -111 -53q-42 -56 -58 -147q-17 -97 -17 -224z" />
<glyph unicode="1" horiz-adv-x="544" d="M0 1416h494v-1417l-330 -1v1175l-163 4z" />
<glyph unicode="2" horiz-adv-x="1105" d="M0 0l510 643q76 102 116 176q40 73 40 152q0 73 -54 118q-55 44 -132 44q-67 0 -108 -41t-58 -111l-301 192q102 162 221 221q117 58 268 58q133 0 248 -56q112 -55 180 -161q66 -106 66 -248q0 -99 -34 -188q-33 -87 -83 -163q-48 -71 -115 -152q-80 -96 -139 -165h430 v-319h-1055z" />
<glyph unicode="3" horiz-adv-x="1086" d="M0 195l231 235q58 -75 114 -109q57 -36 138 -36q85 0 140 43t55 131t-60 118q-61 29 -164 29h-56q-9 -1 -27 -1h-15l-16 -1v248q20 0 49 1h26l27 1q54 2 99 12q44 10 74 43q28 31 28 92q0 82 -48 122q-49 40 -126 40q-36 0 -65 -10q-25 -9 -52 -25q-20 -14 -54 -44 q-7 -6 -15 -13q-5 -5 -13 -12q-16 -14 -21 -19l-243 142q84 135 218 203q133 67 292 67q125 0 227 -49q104 -50 167 -144q62 -97 62 -223q0 -88 -32 -154q-31 -63 -103 -126q61 -34 106 -85q44 -52 69 -117q24 -64 24 -132q0 -119 -45 -205q-48 -88 -125 -142 q-82 -57 -177 -82q-99 -26 -204 -26q-91 0 -178 28q-89 28 -169 81q-82 54 -138 119z" />
<glyph unicode="4" horiz-adv-x="1128" d="M0 1419l2 -861h567v-565l332 -2v569h175l2 287h-177v572h-332v-572h-237v572h-332z" />
<glyph unicode="5" horiz-adv-x="1028" d="M0 110l173 298q83 -114 242 -123q81 0 143 62q61 61 61 159q0 103 -78 155q-79 52 -184 52q-130 0 -274 -56v762h728l1 -319h-400v-123q20 2 33 3l11 1l10 1q5 1 24 1q460 -44 488 -496q0 -117 -44 -216q-45 -97 -125 -165q-82 -70 -183 -104q-103 -35 -214 -35 q-159 -10 -412 143z" />
<glyph unicode="6" horiz-adv-x="1088" d="M0 478q0 251 146 475q144 221 388 468l427 1q-192 -190 -295 -300q-97 -103 -169 -211l4 -4q48 20 111 20q127 0 225 -62q97 -64 149 -169t52 -234q0 -152 -63 -271q-64 -118 -180 -183q-116 -64 -265 -64q-152 0 -274 66q-121 65 -189 186q-67 121 -67 282zM329 458 q0 -53 26 -97q25 -45 70 -71q44 -27 97 -27q78 0 132 57t54 138q0 53 -24 99t-67 73t-95 27q-82 0 -137 -58q-56 -59 -56 -141z" />
<glyph unicode="7" horiz-adv-x="1001" d="M0 1103l3 316h948l-462 -1414l-378 -3l387 1101h-498z" />
<glyph unicode="8" horiz-adv-x="1076" d="M0 395q0 102 55 193q56 92 142 147q-160 115 -160 297q0 109 37 187q38 80 106 132q67 51 157 77q89 24 188 24q193 0 324 -110q130 -111 130 -308q0 -84 -42 -164q-41 -78 -111 -122q102 -70 152 -151q48 -81 48 -202q0 -100 -44 -182q-42 -79 -118 -136 q-74 -54 -167 -82q-90 -28 -187 -28q-130 0 -249 51q-117 49 -189 148q-72 98 -72 229zM330 420q0 -69 50 -116q50 -48 120 -48q87 0 142 43t55 125q0 44 -31 88t-162 100q-105 -54 -139 -97q-35 -44 -35 -95zM367 1036q0 -48 147 -141q84 43 110 79q26 35 26 81 q0 108 -150 108q-56 0 -94 -37q-39 -37 -39 -90z" />
<glyph unicode="9" horiz-adv-x="1088" d="M0 944q0 151 64 266q63 116 180 179q116 63 264 63q154 0 275 -64q120 -64 188 -183q67 -118 67 -277q0 -245 -146 -466q-143 -217 -400 -463l-415 3q166 161 296 295q98 103 168 206l-4 4q-45 -19 -111 -19q-129 0 -224 61q-96 61 -149 166q-53 104 -53 229zM330 948 q0 -50 24 -97t67 -72q44 -26 95 -26q82 0 137 57q56 58 56 138q0 52 -26 96q-25 43 -70 69q-44 26 -97 26q-78 0 -132 -56q-54 -55 -54 -135z" />
<glyph unicode=":" horiz-adv-x="411" d="M0 217q0 49 25 89q26 42 67 65q42 24 89 24t89 -24q41 -25 66 -66q25 -40 25 -88q0 -80 -52 -132q-53 -53 -128 -53q-50 0 -91 24q-42 24 -66 67q-24 44 -24 94zM0 787q0 49 25 89q26 42 67 65q42 24 89 24t89 -24q41 -25 66 -66q25 -40 25 -88q0 -80 -52 -132 q-53 -53 -128 -53q-50 0 -91 24q-42 24 -66 67q-24 44 -24 94z" />
<glyph unicode=";" horiz-adv-x="420" d="M0 188v125h353v-114q14 -252 -281 -297l-1 99q46 12 77 28q-55 7 -97 48q-46 47 -51 111zM9 791q0 49 25 89q26 42 67 65q42 24 89 24t89 -24q41 -25 66 -66q25 -40 25 -88q0 -80 -52 -132q-53 -53 -128 -53q-50 0 -91 24q-42 24 -66 67q-24 44 -24 94z" />
<glyph unicode="&#x3c;" horiz-adv-x="1297" d="M0 721l1247 587v-315l-626 -278l626 -281v-316z" />
<glyph unicode="=" horiz-adv-x="917" d="M0 611l72 -274h795l-71 274h-796zM0 1001l72 -274h795l-71 274h-796z" />
<glyph unicode="&#x3e;" horiz-adv-x="1297" d="M0 118v316l626 281l-626 278v315l1247 -587z" />
<glyph unicode="?" horiz-adv-x="962" d="M0 1235q54 81 123 133q68 51 156 80q86 27 178 27q89 0 173 -29q81 -28 146 -82q62 -53 100 -129q36 -76 36 -166q0 -115 -41 -185q-40 -70 -111 -124l-37 -28l-37 -28q-41 -31 -58 -56q-21 -28 -21 -70v-115h-312v149q0 116 36 180q34 63 97 105l34 23l33 22 q33 23 51 48q17 26 17 67q0 50 -44 85q-44 34 -99 34q-104 0 -174 -109zM267 164q0 49 25 89q26 42 67 65q42 24 89 24t89 -24q41 -25 66 -66q25 -40 25 -88q0 -80 -52 -132q-53 -53 -128 -53q-50 0 -91 24q-42 24 -66 67q-24 44 -24 94z" />
<glyph unicode="@" horiz-adv-x="2301" d="M0 551q0 -228 89 -438q86 -202 241 -358q156 -155 358 -241q210 -89 438 -89q305 0 567 154l-137 270q-199 -122 -430 -122q-167 0 -320 65q-148 63 -262 177t-177 261q-65 154 -65 321q0 166 65 320q63 147 177 261t262 177q153 65 320 65q166 0 320 -65 q147 -63 261 -177t177 -261q65 -154 65 -320q6 -51 -7 -99q-10 -41 -37 -68q-32 -31 -86 -31q-108 0 -145 97q-18 48 -15 96l2 539h-299v-47q-118 59 -247 59q-114 0 -213 -43q-100 -42 -174 -118q-76 -74 -118 -174q-43 -99 -43 -213q0 -112 43 -213q42 -98 118 -174 q75 -76 174 -117q99 -43 213 -43q209 0 363 138q98 -114 269 -114q222 0 361 142q143 146 143 383q0 230 -88 437q-85 201 -242 358t-358 242q-207 88 -437 88q-231 0 -438 -88q-201 -85 -358 -242q-155 -155 -241 -358q-89 -210 -89 -437zM868 549q0 103 72 175t175 72 q101 0 174 -71q71 -71 73 -174v-3q-2 -103 -73 -174q-72 -72 -174 -72q-103 0 -175 73q-72 72 -72 174z" />
<glyph unicode="A" horiz-adv-x="1613" d="M0 0h359l139 252h567l139 -252h359l-781 1439zM642 514l140 252l139 -252h-279z" />
<glyph unicode="B" horiz-adv-x="1086" d="M0 0v1419h417q157 0 288 -35q128 -34 209 -118q79 -82 79 -219q0 -104 -52 -181q-52 -78 -141 -116v-5q51 -20 95 -54q42 -33 75 -79q31 -44 49 -99q17 -56 17 -118q0 -178 -132 -286q-133 -109 -402 -109h-502zM365 279h97q209 0 209 145q0 91 -56 121q-55 30 -158 30 h-92v-296zM365 854h92q85 0 128 39q43 37 43 108q0 75 -54 108q-55 32 -130 32h-79v-287z" />
<glyph unicode="C" horiz-adv-x="1252" d="M0 710q0 -203 94 -373q94 -169 256 -269q161 -99 350 -99q190 0 350 99q84 52 152 126l-229 237q-40 -50 -86 -81q-86 -59 -187 -59t-187 59t-137 156q-51 98 -51 204t50 204q51 97 137 156q88 59 188 59t188 -59q40 -26 83 -77l229 237q-66 72 -150 124q-160 99 -350 99 q-189 0 -350 -99q-162 -101 -256 -270q-94 -170 -94 -374z" />
<glyph unicode="D" horiz-adv-x="1307" d="M0 1v1419h507q156 0 292 -54q134 -53 239 -149q101 -94 161 -227q58 -131 58 -280t-58 -278q-60 -133 -161 -227q-103 -96 -240 -150q-136 -54 -291 -54h-507zM362 300h113q86 0 164 33q77 33 135 91q59 59 90 132q31 72 31 154q0 78 -32 156q-33 75 -88 130 q-54 54 -135 89q-79 33 -165 33h-113v-818z" />
<glyph unicode="E" horiz-adv-x="951" d="M0 0v1419h901v-301h-553v-246h281l81 -299h-362v-274h553v-299h-901z" />
<glyph unicode="F" horiz-adv-x="909" d="M0 2v1417h859v-301h-511v-245h281l81 -299h-362v-573z" />
<glyph unicode="G" horiz-adv-x="1394" d="M0 702q0 202 101 374q100 169 274 270q173 99 375 99q99 0 202 -23q101 -23 191 -69q92 -47 160 -107l-205 -254q-66 60 -153 95q-86 34 -177 34t-168 -31q-79 -32 -134 -87q-55 -57 -87 -134q-31 -75 -31 -167q0 -129 60 -224q59 -96 161 -145q102 -51 226 -51 q50 0 111 12q60 12 89 41v205h-139l-125 299h613v-733q-40 -25 -121 -56q-75 -29 -148 -47q-68 -18 -160 -31q-87 -12 -165 -12q-202 0 -375 99q-174 100 -274 270q-101 170 -101 373z" />
<glyph unicode="H" horiz-adv-x="1196" d="M0 0h348v580h450v-580h348v1419h-348v-518h-450v518h-348v-1419z" />
<glyph unicode="I" horiz-adv-x="398" d="M0 1v1417h348v-1418z" />
<glyph unicode="J" horiz-adv-x="754" d="M0 -269v-304q82 5 149 21q191 47 334 175t196 299q19 61 23 131h2v1368h-337v-1353h-1q-8 -52 -13 -68q-32 -96 -108 -163q-75 -68 -181 -96l-3 -1h-4q-7 -1 -13 -2q-21 -4 -44 -7z" />
<glyph unicode="K" horiz-adv-x="1175" d="M0 1v1419h333v-677l414 677h375l-448 -732l451 -687h-376l-416 636v-636h-333z" />
<glyph unicode="L" horiz-adv-x="959" d="M0 0v1418l348 1v-1095h561l-93 -324h-816z" />
<glyph unicode="M" horiz-adv-x="1372" d="M0 -1h370l1 660l277 -274l298 285v-670l376 -1v1438l-674 -554l-648 554v-1438z" />
<glyph unicode="N" horiz-adv-x="1302" d="M0 3v1436l904 -675v655l348 -2v-1418l-903 725l1 -721h-350z" />
<glyph unicode="O" horiz-adv-x="1549" d="M0 709q0 202 101 374q100 169 274 270q173 99 375 99q203 0 375 -99q173 -100 273 -270q101 -172 101 -374q0 -203 -101 -373q-100 -171 -273 -270q-172 -99 -375 -99q-202 0 -375 99q-174 100 -274 270q-101 170 -101 373zM348 709q0 -107 55 -204q55 -99 146 -157 q92 -59 201 -59q108 0 200 59q91 58 147 157q54 98 54 204q0 107 -54 204t-146 156q-94 59 -201 59q-109 0 -201 -59q-93 -58 -147 -156q-54 -97 -54 -204z" />
<glyph unicode="P" horiz-adv-x="1046" d="M0 0v1419h424q142 0 242 -22q102 -22 176 -74t114 -141t40 -217q0 -105 -40 -188t-111 -142q-72 -60 -169 -91q-99 -32 -205 -32h-122v-512h-349zM349 813h100q96 0 148 40q51 39 51 114q0 73 -51 112q-52 39 -148 39h-100v-305z" />
<glyph unicode="Q" horiz-adv-x="1549" d="M0 723q0 -201 101 -374q100 -169 271 -268l-265 -96q7 -30 18 -64l6 -16q127 -297 380 -297q94 0 204 40l205 76l-1 2q30 7 54 7q79 0 110 -74l-1 -1q1 -1 2 -3l2 -5l1 -4l1 -4h1q7 -24 7 -44q0 -13 -3 -24l284 104q-10 42 -17 64l-6 16q-105 244 -296 288q37 16 66 34 q174 100 274 269q101 172 101 374q0 204 -101 374q-102 171 -274 270t-374 99t-376 -99q-172 -100 -273 -270q-101 -172 -101 -374zM348 723q0 107 54 204t146 156q94 59 202 59q107 0 201 -59q90 -57 146 -156q54 -99 54 -204q0 -107 -54 -205q-55 -97 -147 -156 q-94 -59 -200 -59q-109 0 -201 59t-146 156q-55 98 -55 205zM389 72q137 -76 296 -88l-120 -45l1 -2q-30 -7 -54 -7q-79 0 -110 74l1 1l-2 4l-2 4l-1 4l-1 4h-1q-7 21 -7 42v9z" />
<glyph unicode="R" horiz-adv-x="1137" d="M0 3v1416h395q168 0 297 -44q127 -43 199 -141q71 -98 71 -253q0 -114 -62 -218q-61 -103 -165 -142l352 -620h-407l-328 636h-4v-634h-348zM348 721q88 0 146 21q56 19 89 67q31 46 31 119q0 110 -66 150q-67 40 -200 40v-397z" />
<glyph unicode="S" horiz-adv-x="972" d="M0 135l188 268q90 -114 237 -114q59 0 113 33q53 32 53 94q0 73 -99 116q-44 19 -102 43l-52 21l-53 22q-107 44 -183 133q-76 88 -76 263q0 134 66 234q64 99 171 152q104 52 223 52q110 0 216 -42q108 -44 189 -122l-171 -244q-62 59 -109 83q-50 26 -116 26 q-49 0 -92 -31q-45 -31 -45 -82q0 -72 98 -114q100 -43 205 -83q106 -42 184 -133q77 -92 77 -270q0 -228 -137 -350q-136 -123 -347 -123q-122 0 -236 42q-115 42 -202 126z" />
<glyph unicode="T" horiz-adv-x="1095" d="M0 1419h961l84 -323h-337v-1096h-348v1096h-273z" />
<glyph unicode="U" horiz-adv-x="1216" d="M0 467v952l349 -1v-851q0 -83 19 -143q20 -63 68 -98q47 -37 130 -37q155 0 204 91q48 92 48 263v776l348 -1v-926q0 -161 -78 -280q-78 -120 -215 -182q-138 -63 -316 -63q-167 0 -292 54q-126 54 -195 166q-70 112 -70 280z" />
<glyph unicode="V" horiz-adv-x="1424" d="M0 1418l687 -1455l687 1455h-313l-374 -742l-371 742h-316z" />
<glyph unicode="W" horiz-adv-x="1886" d="M0 1419h350l201 -682l354 678l348 -690l213 694h370l-534 -1450h-8l-385 750l-414 -750h-6z" />
<glyph unicode="X" horiz-adv-x="1416" d="M0 -1l475 735l-461 683l383 -1l287 -418l282 418l400 2l-484 -679l481 -741l-386 1l-301 457l-316 -457h-360z" />
<glyph unicode="Y" horiz-adv-x="1300" d="M0 1419l446 -765v-654h368v657l436 762h-404l-219 -419l-220 419h-407z" />
<glyph unicode="Z" horiz-adv-x="1298" d="M0 0l678 1096h-485l-101 323h1156l-674 -1095h614l2 -324h-1190z" />
<glyph unicode="[" horiz-adv-x="475" d="M0 -121h1v1676h-1v185h1v2l424 2v-189h-199v-1676h199v-185l-424 -3v3h-1v185z" />
<glyph unicode="\" horiz-adv-x="845" d="M0 1452h260l535 -1485h-258z" />
<glyph unicode="]" horiz-adv-x="475" d="M0 -121h199v1676h-199v189l424 -2v-2h1v-185h-1v-1676h1v-185h-1v-3l-424 3v185z" />
<glyph unicode="^" horiz-adv-x="734" d="M0 840l342 520l342 -520h-150l-193 310l-191 -310h-150z" />
<glyph unicode="_" horiz-adv-x="720" d="M0 -37v281h670v-281h-670z" />
<glyph unicode="`" horiz-adv-x="489" d="M0 1942l218 -403h221l-144 403h-295z" />
<glyph unicode="a" d="M0 518q0 -155 81 -281q80 -124 216 -196q136 -71 289 -71q116 0 222 41q15 5 47 19v-30l317 -3l1 521q0 117 -47 218q-46 98 -130 174q-80 74 -188 114t-222 40q-115 0 -222 -41q-107 -39 -188 -113q-82 -74 -129 -174q-47 -101 -47 -218zM319 518q0 70 37 129t99 94 q62 34 131 34q71 0 132 -34q62 -35 99 -94t37 -129q0 -106 -80 -183q-79 -76 -188 -76q-108 0 -187 76q-80 77 -80 183z" />
<glyph unicode="b" d="M0 510v915l319 1v-422l23 10l23 10q108 39 221 39q114 0 222 -39q105 -39 189 -115q83 -75 129 -175q47 -101 47 -217q0 -119 -46 -218t-130 -176q-85 -77 -189 -115q-105 -41 -222 -41q-153 0 -289 72q-136 71 -216 196q-80 123 -81 275zM319 517q0 -107 80 -184 q79 -77 187 -77q109 0 188 77q80 77 80 184q0 70 -37 128q-37 59 -99 94q-61 35 -132 35q-69 0 -131 -35t-99 -94q-37 -58 -37 -128z" />
<glyph unicode="c" horiz-adv-x="1015" d="M0 500q0 127 43 230q44 105 121 180q76 73 185 115q108 41 233 41q102 0 199 -32q98 -33 173 -93l-166 -226q-43 36 -94 54q-53 18 -112 18q-110 0 -186 -71q-77 -71 -77 -176q0 -82 33 -147q32 -65 95 -103q61 -39 141 -39q118 0 202 75l175 -222q-38 -40 -106 -71 q-69 -31 -142 -46t-135 -15q-174 0 -307 73q-133 74 -204 194q-71 122 -71 261z" />
<glyph unicode="d" d="M0 517q0 116 47 217q46 100 129 175q84 76 189 115q108 39 222 39q113 0 221 -39l23 -10l23 -10v422l319 -1v-915q-1 -152 -81 -275q-80 -125 -216 -196q-136 -72 -289 -72q-117 0 -222 41q-104 38 -189 115q-84 77 -130 176t-46 218zM319 517q0 -107 80 -184 q79 -77 188 -77q108 0 187 77q80 77 80 184q0 70 -37 128q-37 59 -99 94q-61 35 -131 35t-132 -35t-99 -94q-37 -58 -37 -128z" />
<glyph unicode="e" horiz-adv-x="1174" d="M0 519q0 -156 78 -281q76 -125 207 -197q128 -71 277 -71q110 0 212 40q76 31 150 91l-172 246l-2 -3l-3 -3l-3 -4l-2 -2q-76 -76 -180 -76q-103 0 -180 76q-61 61 -73 145h688v2h124l2 17q1 6 1 11v9q0 115 -45 216q-45 102 -124 175q-80 75 -181 114q-102 40 -212 40 t-213 -40q-100 -39 -180 -115q-79 -74 -124 -174q-45 -99 -45 -216zM366 679q34 40 70 62q59 34 126 34t126 -34q36 -22 70 -62h-392z" />
<glyph unicode="f" horiz-adv-x="749" d="M0 1025h177q0 186 64 286q64 99 180 146q114 46 276 46l2 -296h-6q-116 0 -156 -35q-41 -38 -41 -147h125l71 -274h-196v-750h-319v750h-105z" />
<glyph unicode="g" horiz-adv-x="1167" d="M0 510q0 119 45 220q43 100 122 178q77 74 178 115q102 41 209 41q186 0 276 -48q287 -123 287 -507l-1 -542v-74q0 -197 -140 -337q-65 -65 -174 -103q-102 -36 -202 -36h-56q-228 5 -363 139q-91 93 -110 163l305 177q5 -79 63 -134t138 -55q63 0 115 36q51 35 73 90 l1 4l2 5l4 14q4 12 5 24v3l1 3l1 4v6h1v105l-8 -4l-8 -3q-100 -41 -210 -41q-146 0 -273 73q-127 71 -204 199t-77 285zM314 515q0 -107 78 -183q79 -77 182 -77q104 0 183 77q78 76 78 183q0 68 -36 128t-96 94q-61 34 -129 34t-127 -34q-60 -34 -97 -94q-36 -60 -36 -128z " />
<glyph unicode="h" horiz-adv-x="1009" d="M0 -2v1421l320 1v-456q46 47 114 74q69 27 140 27q385 0 385 -451v-614l-320 -1v593q0 92 -42 138t-118 46q-74 0 -116 -46q-43 -46 -43 -138v-592z" />
<glyph unicode="i" horiz-adv-x="382" d="M0 1313q0 46 22 84q24 39 61 61t83 22t84 -22q37 -22 60 -61q22 -38 22 -84q0 -48 -22 -85t-60 -60t-84 -23t-83 22q-38 23 -60 61q-23 40 -23 85zM12 -2v1024l319 1v-1025h-319z" />
<glyph unicode="j" horiz-adv-x="599" d="M0 -92q82 0 128 12q47 11 71 50q24 38 24 114v939h319v-970q0 -112 -20 -194q-22 -82 -70 -133q-50 -55 -135 -80q-85 -27 -217 -27zM217 1313q0 46 22 84q24 39 61 61t83 22t84 -22q37 -22 60 -61q22 -38 22 -84q0 -48 -22 -85t-60 -60t-84 -23t-83 22q-38 23 -60 61 q-23 40 -23 85z" />
<glyph unicode="k" horiz-adv-x="1145" d="M0 0v1418l320 1v-784h4l331 388h375l-370 -439l435 -584h-399l-376 502v-502h-320z" />
<glyph unicode="l" horiz-adv-x="369" d="M0 -2v1421l319 1v-1418z" />
<glyph unicode="m" horiz-adv-x="1538" d="M4 -1v606q0 435 442 459h18q176 -10 282 -84q105 74 281 84h18q442 -24 442 -459v-606h-320v606q0 165 -122 169h-18q-113 -4 -121 -145v-630h-321v630q-8 141 -121 145h-18q-122 -4 -122 -169v-606h-320z" />
<glyph unicode="n" horiz-adv-x="952" d="M0 0h320v605q0 165 122 170h18q122 -5 122 -170v-605h320v605q0 437 -442 459h-18q-442 -22 -442 -459v-605z" />
<glyph unicode="o" d="M0 518q0 117 47 218t129 175q83 75 189 115q108 40 221 40q114 0 222 -40q105 -38 189 -114q83 -76 129 -176q47 -101 47 -218q0 -119 -46 -218q-46 -100 -130 -177q-85 -76 -189 -115q-105 -41 -222 -41q-153 0 -289 72t-216 197q-81 126 -81 282zM319 518 q0 -107 80 -184q79 -77 187 -77q109 0 188 77q80 77 80 184q0 70 -37 129t-99 94q-61 35 -132 35q-69 0 -131 -35t-99 -94t-37 -129z" />
<glyph unicode="p" d="M0 -393l319 -1v422l23 -10l23 -10q108 -39 221 -39q115 0 222 39q106 39 189 115q83 75 129 175q47 101 47 217q0 119 -46 218t-130 176q-85 77 -189 115q-105 41 -222 41q-153 0 -289 -72q-136 -71 -216 -196q-80 -122 -81 -275v-915zM319 515q0 107 80 184 q79 77 187 77q109 0 188 -77q80 -78 80 -184q0 -70 -37 -128q-37 -59 -99 -94t-132 -35t-131 35q-62 35 -99 94q-37 57 -37 128z" />
<glyph unicode="q" d="M0 515q0 -116 47 -217q46 -100 129 -175q83 -76 189 -115q108 -39 222 -39q113 0 221 39l23 10l23 10v-422l319 1v915q-1 153 -81 275q-80 125 -216 196q-136 72 -289 72q-117 0 -222 -41q-104 -38 -189 -115q-84 -77 -130 -176t-46 -218zM319 515q0 106 80 184 q79 77 188 77q108 0 187 -77q80 -77 80 -184q0 -71 -37 -128q-37 -59 -99 -94q-61 -35 -131 -35t-132 35t-99 94q-37 58 -37 128z" />
<glyph unicode="r" horiz-adv-x="575" d="M0 0h320v606q0 165 122 170h18q40 -2 65 -19v302q-32 5 -65 6h-18q-442 -22 -442 -459v-606z" />
<glyph unicode="s" horiz-adv-x="884" d="M0 108l162 214q95 -95 232 -95q143 0 143 84q0 44 -79 65q-56 13 -178 45q-99 26 -167 96q-67 69 -67 212q0 110 55 186q56 76 145 112q91 37 199 37q61 0 124 -17q68 -21 122 -52q59 -33 104 -74l-176 -175q-77 58 -168 58q-109 0 -109 -61q0 -55 81 -77q89 -24 179 -45 q99 -25 165 -92q67 -68 67 -214q0 -109 -58 -188q-58 -80 -155 -119q-97 -41 -201 -41q-87 0 -157 14q-70 13 -131 44q-63 31 -132 83z" />
<glyph unicode="t" horiz-adv-x="834" d="M0 751l72 274h139v394l319 -2v-392h212l-71 -274h-141v-339q0 -136 170 -136q55 0 84 13l-92 -318q-25 -4 -49 -4q-143 0 -238 46q-96 46 -145 139q-49 92 -49 235v364h-211z" />
<glyph unicode="u" horiz-adv-x="952" d="M0 428q0 -435 442 -459h18q442 24 442 459v596h-320v-596q0 -165 -122 -169h-18q-122 4 -122 169v596h-320v-596z" />
<glyph unicode="v" horiz-adv-x="1109" d="M0 1021l325 2l199 -454l196 454h339l-539 -1065z" />
<glyph unicode="w" horiz-adv-x="1538" d="M4 427v596h320v-596q0 -165 122 -169h18q113 4 121 145v620h321v-620q8 -141 121 -145h18q122 4 122 169v596h320v-596q0 -435 -442 -459h-18q-176 10 -282 84q-105 -74 -281 -84h-18q-442 24 -442 459z" />
<glyph unicode="x" horiz-adv-x="1176" d="M0 -1l376 532l-351 490l351 2l186 -284l199 284l345 -1l-370 -495l390 -525l-381 -2l-195 296l-211 -296z" />
<glyph unicode="y" horiz-adv-x="1038" d="M0 -287q20 -68 104 -154q129 -128 343 -132h53q96 0 191 34q105 38 165 98q132 134 132 320v1144l-320 -1v-574q0 -90 -42 -137q-44 -47 -117 -47q-76 0 -118 46q-42 47 -42 138v575h-320v-597q0 -456 391 -456q39 0 82 5q77 7 168 44v-137h-1v-10q-1 -3 -1 -5 q-1 -14 -5 -23l-2 -7l-2 -7l-2 -5l-1 -3q-23 -55 -69 -86q-49 -34 -108 -34q-76 0 -131 52t-59 128z" />
<glyph unicode="z" horiz-adv-x="1035" d="M0 0l452 756h-370l64 268h825l-435 -735h449l-77 -289h-908z" />
<glyph unicode="{" horiz-adv-x="664" d="M0 500v168q69 0 139 27t70 100v465q0 92 45 156q43 64 106 96q62 32 111 32h143v-166h-51q-127 0 -127 -153v-439q-1 -73 -36 -117q-34 -43 -84 -61q-51 -19 -93 -20v-6q55 -5 98 -19q45 -16 79 -61q35 -47 36 -137v-439q0 -64 15 -97t41 -44q26 -12 71 -12h51v-168h-143 q-47 0 -110 33q-63 31 -107 97q-45 65 -45 154v467q0 84 -70 114t-139 30z" />
<glyph unicode="|" horiz-adv-x="275" d="M0 -279v2051h225v-2051h-225z" />
<glyph unicode="}" horiz-adv-x="664" d="M0 -227h51q66 0 97 30q30 29 30 123v439q2 130 64 170q61 39 149 47v6q-77 5 -144 49q-67 43 -69 149v439q0 153 -127 153h-51v166h143q49 0 111 -32t107 -96q44 -65 44 -156v-465q0 -73 70 -100q71 -27 139 -27v-168q-34 0 -84 -11q-48 -10 -87 -43q-38 -32 -38 -90 v-467q0 -89 -44 -154q-46 -66 -107 -97q-63 -33 -111 -33h-143v168z" />
<glyph unicode="~" horiz-adv-x="705" d="M0 1233q8 95 66 161q57 65 142 65q49 0 139 -17q92 -36 116 -36q51 0 69 73h123q-16 -111 -66 -173q-49 -61 -152 -61q-40 0 -126 33q-78 33 -113 33q-26 0 -49 -23q-22 -22 -27 -55h-122z" />
<glyph unicode="&#xa1;" horiz-adv-x="462" d="M0 -2l50 977h312l50 -977h-412zM29 1254q0 80 52 132q53 53 128 53q50 0 92 -24q42 -25 65 -67q24 -43 24 -94q0 -49 -25 -89q-26 -42 -67 -65q-42 -24 -89 -24q-48 0 -88 25q-41 23 -67 65q-25 40 -25 88z" />
<glyph unicode="&#xa2;" horiz-adv-x="980" d="M0 662q0 121 42 221q40 98 116 173q72 71 178 112l5 2l5 1v112h304v-83q52 -7 103 -24q96 -32 166 -89l-160 -218q-37 32 -90 51q-52 18 -108 18q-105 0 -179 -68t-74 -170q0 -80 31 -142q32 -63 91 -99q59 -37 137 -37q115 0 194 72l169 -214q-37 -40 -102 -69 q-66 -29 -137 -44l-21 -4l-20 -3v-100h-304v127q-46 18 -81 37q-129 70 -197 187q-68 116 -68 251z" />
<glyph unicode="&#xa3;" horiz-adv-x="853" d="M0 270q191 128 200 235q9 106 -71 207q-80 98 -97 206q-21 138 25 226q59 111 160 159q80 38 168 42q93 5 171 -30q96 -40 142 -107q31 -48 54 -125l-239 -101q-29 108 -112 116q-84 8 -108 -82q-25 -90 73 -218q96 -126 113 -237q4 -62 -16 -124q-16 -46 -25 -59l-12 6 q-4 2 -7 4h-1q106 -87 301 38l84 -245l-21 -12q-185 -128 -331 -61q-147 67 -332 -41zM11 528v160h655v-160h-655z" />
<glyph unicode="&#xa4;" horiz-adv-x="981" d="M0 375l120 120q-38 78 -38 169q0 90 38 168l-117 116l178 178l117 -117q78 38 167 38q91 0 169 -38l120 120l177 -176l-121 -121q38 -78 38 -168q0 -93 -37 -168l117 -117l-178 -178l-117 117q-75 -37 -168 -37q-90 0 -168 38l-121 -121zM305 664q0 -67 47 -114t114 -47 q66 0 113 47t47 114q0 66 -47 113t-113 47q-67 0 -114 -47t-47 -113z" />
<glyph unicode="&#xa5;" horiz-adv-x="1134" d="M0 1316l330 -565h-112v-160h169v-110h-169v-160h169v-235h319v235h167v160h-167v110h167v160h-113l324 565h-350l-190 -363l-191 363h-353z" />
<glyph unicode="&#xa6;" horiz-adv-x="275" d="M0 -279v933h225v-933h-225zM0 858v914h225v-914h-225z" />
<glyph unicode="&#xa7;" horiz-adv-x="776" d="M0 75l148 194q71 -83 187 -83q46 0 88 24q41 23 41 67q0 52 -77 84q-34 14 -79 31l-41 15l-42 16q-85 31 -145 96t-60 189q0 98 52 169q18 26 46 51q-26 22 -38 35q-60 65 -60 189q0 98 52 169q53 73 135 110q81 37 176 37q87 0 169 -30q84 -32 150 -88l-136 -176 q-45 39 -85 60q-38 19 -91 19q-39 0 -73 -22q-35 -23 -35 -60q0 -52 77 -82q71 -28 161 -60q83 -30 145 -96q61 -65 61 -193q0 -143 -83 -229l22 -22q61 -65 61 -194q0 -163 -108 -252q-109 -89 -274 -89q-98 0 -185 31q-90 30 -159 90zM282 727q0 -52 77 -82q58 -23 79 -27 q43 53 35 105q-9 50 -86 82q-3 1 -7 3q-31 -1 -63 -22q-35 -23 -35 -59z" />
<glyph unicode="&#xa8;" horiz-adv-x="943" d="M0 1601q0 48 25 89q24 40 65 66q40 25 88 25q80 0 132 -52q53 -53 53 -128q0 -50 -24 -91q-24 -42 -67 -66t-94 -24q-49 0 -89 25q-42 26 -65 67q-24 42 -24 89zM530 1601q0 48 25 89q24 40 65 66q40 25 88 25q80 0 132 -52q53 -53 53 -128q0 -50 -24 -91 q-24 -42 -67 -66t-94 -24q-49 0 -89 25q-42 26 -65 67q-24 42 -24 89z" />
<glyph unicode="&#xa9;" horiz-adv-x="1176" d="M0 1241q0 235 165 401t398 166t398 -166t165 -401q0 -233 -165 -400q-165 -166 -398 -166t-398 166q-165 167 -165 400zM130 1241q0 -181 127 -308q126 -128 306 -128q178 0 306 128q127 127 127 308q0 182 -127 309q-128 128 -306 128q-180 0 -306 -128 q-127 -127 -127 -309zM284 1232q0 -82 39 -153q38 -69 105 -110t143 -41q77 0 144 41q32 20 62 51l-94 98q-15 -19 -35 -34q-34 -24 -77 -24q-41 0 -76 24q-36 24 -57 64q-21 41 -21 84q0 44 21 84q20 39 56 64q36 24 77 24q43 0 77 -24q16 -11 34 -32l94 97q-28 31 -61 51 q-67 41 -144 41q-76 0 -143 -41q-66 -40 -105 -110t-39 -154z" />
<glyph unicode="&#xaa;" horiz-adv-x="804" d="M0 1095q0 74 31 135q33 65 86 109q52 45 124 71q71 24 146 24q78 0 147 -25q18 -7 37 -21l183 -1v-613h-190v17q-81 -37 -177 -37q-78 0 -146 25t-124 72t-86 109q-31 61 -31 135zM211 1095q0 -67 53 -114t123 -47q71 0 124 47t53 114q0 43 -24 80q-25 35 -66 58 q-40 22 -87 22t-87 -22q-42 -23 -65 -58q-24 -37 -24 -80z" />
<glyph unicode="&#xab;" horiz-adv-x="1094" d="M0 714l400 -530h257l-400 530l400 531h-257zM387 714l400 -530h257l-400 530l400 531h-257z" />
<glyph unicode="&#xac;" horiz-adv-x="1157" d="M0 563l2 251h1104v-79h1v-430h-236v258h-871z" />
<glyph unicode="&#xad;" horiz-adv-x="682" d="M0 567h632v274h-632v-274z" />
<glyph unicode="&#xae;" horiz-adv-x="1176" d="M0 1241q0 235 165 401t398 166t398 -166t165 -401q0 -233 -165 -400q-165 -166 -398 -166t-398 166q-165 167 -165 400zM130 1241q0 -181 127 -308q126 -128 306 -128q178 0 306 128q127 127 127 308q0 182 -127 309q-128 128 -306 128q-180 0 -306 -128 q-127 -127 -127 -309zM366 948v581h163q70 0 122 -18q53 -18 81 -58q29 -41 29 -104q0 -48 -25 -89q-25 -42 -68 -59l145 -254h-167l-135 261h-2v-260h-143zM509 1242q36 0 60 9q23 7 37 27q13 19 13 49q0 46 -27 62q-28 16 -83 16v-163z" />
<glyph unicode="&#xaf;" horiz-adv-x="1107" d="M0 1536v252h1057v-252h-1057z" />
<glyph unicode="&#xb0;" horiz-adv-x="447" d="M0 1280q0 82 58 140t140 58q83 0 141 -58t58 -140q0 -83 -58 -141t-141 -58q-82 0 -140 58t-58 141zM119 1280q0 -33 23 -56q23 -24 56 -24t57 24q23 23 23 56q0 31 -23 56q-25 23 -57 23q-33 0 -56 -23q-23 -25 -23 -56z" />
<glyph unicode="&#xb1;" horiz-adv-x="1108" d="M0 12v241h1058v-241h-1058zM1 730v251h403v408h250v-408h404v-251h-404v-408h-250v408h-403z" />
<glyph unicode="&#xb2;" horiz-adv-x="578" d="M0 507l255 322q39 52 58 88q20 38 20 76q0 37 -27 59q-26 22 -66 22q-33 0 -54 -21q-22 -22 -29 -55l-150 96q51 81 110 110q60 29 134 29q68 0 124 -28q58 -29 90 -80q33 -52 33 -124q0 -48 -17 -94q-16 -43 -41 -81q-26 -38 -58 -76l-34 -41l-17 -21l-18 -21h215v-160 h-528z" />
<glyph unicode="&#xb3;" horiz-adv-x="568" d="M0 605l116 117q29 -37 57 -54q29 -18 69 -18q42 0 70 22q27 21 27 65t-30 59q-31 14 -82 14h-41l-16 -1v124h25l26 1q30 2 50 7q22 4 37 21q14 16 14 46q0 40 -24 61q-26 20 -63 20q-16 0 -33 -5q-18 -7 -26 -13q-10 -7 -27 -21q-7 -7 -14 -13l-6 -6l-4 -4l-122 71 q42 68 109 102q68 33 146 33q62 0 114 -24q51 -25 83 -72q31 -47 31 -112q0 -46 -16 -77t-51 -63q31 -17 53 -42q21 -24 34 -58q12 -33 12 -67q0 -59 -22 -102q-21 -41 -62 -71q-39 -27 -89 -41q-48 -13 -102 -13q-44 0 -89 14q-41 12 -85 40q-40 26 -69 60z" />
<glyph unicode="&#xb4;" horiz-adv-x="489" d="M0 1539h221l218 403h-295z" />
<glyph unicode="&#xb5;" horiz-adv-x="949" d="M0 379q0 -48 4 -84v-850h312v484q38 -8 79 -9q178 0 317 82h187v1020l-320 -3v-640q0 -51 -18 -89q-18 -39 -48 -60q-31 -21 -65 -21q-128 0 -128 170v641h-320v-641z" />
<glyph unicode="&#xb6;" horiz-adv-x="906" d="M4 969q-4 185 109 298q146 145 465 152h278v-1419h-187v1088h-140v-1088h-187v605h-12q-106 0 -204 88q-121 107 -122 276z" />
<glyph unicode="&#xb7;" horiz-adv-x="411" d="M0 763q0 49 25 89q26 42 67 65q42 24 89 24t89 -24q41 -25 66 -66q25 -40 25 -88q0 -80 -52 -132q-53 -53 -128 -53q-50 0 -91 24q-42 24 -66 67q-24 44 -24 94z" />
<glyph unicode="&#xb8;" horiz-adv-x="465" d="M0 -330l71 92q47 -36 99 -36q48 0 80 22q29 20 29 45q0 26 -28 45q-30 21 -105 24l92 189h148l-76 -118q37 -13 70 -51q35 -41 35 -89q0 -71 -74 -121q-70 -48 -171 -48q-87 0 -170 46z" />
<glyph unicode="&#xb9;" horiz-adv-x="297" d="M0 1215h247v-708l-165 -1v588l-81 2z" />
<glyph unicode="&#xba;" horiz-adv-x="567" d="M0 862q0 67 12 128q10 60 40 118q27 53 80 89q51 33 125 33q76 0 128 -33q53 -35 81 -88q28 -54 40 -118q11 -66 11 -129q0 -91 -22 -172q-23 -86 -80 -140q-59 -56 -158 -56q-75 0 -125 34q-51 33 -80 89q-30 58 -40 117q-12 62 -12 128zM164 862q0 -63 9 -110 q8 -47 29 -73q20 -27 55 -27q96 0 96 210t-96 210q-35 0 -55 -26q-22 -28 -29 -73q-9 -46 -9 -111z" />
<glyph unicode="&#xbb;" horiz-adv-x="1094" d="M0 184h257l400 530l-400 531h-257l400 -531zM387 184h257l400 530l-400 531h-257l400 -531z" />
<glyph unicode="&#xbc;" horiz-adv-x="1172" d="M0 0l710 1419h162l-713 -1419h-159zM24 1419h247v-708l-165 -1v588l-81 2zM578 711l1 -434h286v-285l167 -1v287h89l1 145h-90v288h-167v-288h-120v288h-167z" />
<glyph unicode="&#xbd;" horiz-adv-x="1123" d="M0 0l710 1419h162l-713 -1419h-159zM24 1419h247v-708l-165 -1v588l-81 2zM545 0l255 322q39 52 58 88q20 38 20 76q0 37 -27 59q-26 22 -66 22q-33 0 -54 -21q-22 -22 -29 -55l-150 96q51 81 110 110q60 29 134 29q68 0 124 -28q58 -29 90 -80q33 -52 33 -124 q0 -48 -17 -94q-16 -43 -41 -81q-26 -38 -58 -76l-34 -41l-17 -21l-18 -21h215v-160h-528z" />
<glyph unicode="&#xbe;" horiz-adv-x="1386" d="M0 791l116 117q29 -37 57 -54q29 -18 69 -18q42 0 70 22q27 21 27 65t-30 59q-31 14 -82 14h-41l-16 -1v124h25l26 1q30 2 50 7q22 4 37 21q14 16 14 46q0 40 -24 61q-26 20 -63 20q-16 0 -33 -5q-18 -7 -26 -13q-10 -7 -27 -21q-7 -7 -14 -13l-6 -6l-4 -4l-122 71 q42 68 109 102q68 33 146 33q62 0 114 -24q51 -25 83 -72q31 -47 31 -112q0 -46 -16 -77t-51 -63q31 -17 53 -42q21 -24 34 -58q12 -33 12 -67q0 -59 -22 -102q-21 -41 -62 -71q-39 -27 -89 -41q-48 -13 -102 -13q-44 0 -89 14q-41 12 -85 40q-40 26 -69 60zM176 0l710 1419 h162l-713 -1419h-159zM792 711l1 -434h286v-285l167 -1v287h89l1 145h-90v288h-167v-288h-120v288h-167z" />
<glyph unicode="&#xbf;" horiz-adv-x="962" d="M0 385q0 115 41 186q41 69 111 123l38 28l37 28q36 28 58 57q20 29 20 69v115h312v-149q0 -115 -35 -180q-36 -64 -98 -105l-34 -22l-33 -23q-34 -23 -50 -48q-18 -25 -18 -67q0 -49 45 -84q44 -35 98 -35q104 0 174 109l246 -168q-53 -81 -122 -132q-71 -53 -157 -80 q-84 -28 -178 -28q-89 0 -173 29q-82 28 -146 83q-63 53 -99 129q-37 74 -37 165zM284 1290q0 80 52 132q53 53 128 53q50 0 92 -24q42 -25 65 -67q24 -43 24 -94q0 -49 -25 -89q-26 -42 -67 -65q-42 -24 -89 -24q-48 0 -88 25q-41 23 -67 65q-25 40 -25 88z" />
<glyph unicode="&#xc0;" horiz-adv-x="1613" d="M0 0h359l139 252h567l139 -252h359l-781 1439zM323 1940l218 -403h221l-144 403h-295zM642 514l140 252l139 -252h-279z" />
<glyph unicode="&#xc1;" horiz-adv-x="1613" d="M0 0h359l139 252h567l139 -252h359l-781 1439zM642 514l140 252l139 -252h-279zM812 1537h221l218 403h-295z" />
<glyph unicode="&#xc2;" horiz-adv-x="1613" d="M0 0h359l139 252h567l139 -252h359l-781 1439zM409 1537h241l136 153l137 -153h251l-374 467zM642 514l140 252l139 -252h-279z" />
<glyph unicode="&#xc3;" horiz-adv-x="1613" d="M0 0h359l139 252h567l139 -252h359l-602 1093l-179 326l-180 -326zM343 1537q10 126 87 215q76 88 191 88q67 0 187 -23q123 -48 155 -48q67 0 93 98h165q-22 -149 -89 -232q-67 -82 -204 -82q-54 0 -169 44q-103 45 -151 45q-37 0 -65 -31q-30 -31 -37 -74h-163z M642 514l140 252l139 -252h-279z" />
<glyph unicode="&#xc4;" horiz-adv-x="1613" d="M0 0h359l139 252h567l139 -252h359l-602 1093l-179 326l-180 -326zM345 1718q0 48 25 89q24 40 65 66q40 25 88 25q80 0 132 -52q53 -53 53 -128q0 -50 -24 -91q-24 -42 -67 -66t-94 -24q-49 0 -89 25q-42 26 -65 67q-24 42 -24 89zM642 514l140 252l139 -252h-279z M875 1718q0 48 25 89q24 40 65 66q40 25 88 25q80 0 132 -52q53 -53 53 -128q0 -50 -24 -91q-24 -42 -67 -66t-94 -24q-49 0 -89 25q-42 26 -65 67q-24 42 -24 89z" />
<glyph unicode="&#xc5;" horiz-adv-x="1613" d="M0 0l602 1093l158 287q-82 8 -141 66q-67 67 -67 162q0 96 67 163t163 67q95 0 162 -67t67 -163q0 -95 -67 -162q-58 -58 -141 -66l158 -287l602 -1093h-359l-139 252h-567l-139 -252h-359zM642 514h279l-139 252zM721 1616q0 -24 18 -41q17 -17 41 -17q23 0 42 17 q17 17 17 41q0 25 -17 42q-19 17 -42 17q-24 0 -41 -17q-18 -16 -18 -42z" />
<glyph unicode="&#xc6;" horiz-adv-x="2066" d="M0 0l1114 1419h902v-301h-554v-246h281l81 -299h-362v-274h554v-299h-902v253h-481v1l-200 -254h-433zM840 517h274v348z" />
<glyph unicode="&#xc7;" horiz-adv-x="1252" d="M0 710q0 -203 94 -373q94 -169 256 -269q121 -75 260 -93l-70 -143q75 -3 105 -24q28 -19 28 -45q0 -25 -29 -45q-32 -22 -80 -22q-52 0 -99 36l-71 -92q83 -46 170 -46q101 0 171 48q74 50 74 121q0 48 -35 89q-33 38 -70 51l44 68q159 10 302 97q84 52 152 126 l-229 237q-40 -50 -86 -81q-86 -59 -187 -59t-187 59t-137 156q-51 98 -51 204t50 204q51 97 137 156q88 59 188 59t188 -59q40 -26 83 -77l229 237q-66 72 -150 124q-160 99 -350 99q-189 0 -350 -99q-162 -101 -256 -270q-94 -170 -94 -374z" />
<glyph unicode="&#xc8;" horiz-adv-x="951" d="M0 0v1419h901v-301h-553v-246h281l81 -299h-362v-274h553v-299h-901zM157 1940l218 -403h221l-144 403h-295z" />
<glyph unicode="&#xc9;" horiz-adv-x="951" d="M0 0v1419h901v-301h-553v-246h281l81 -299h-362v-274h553v-299h-901zM337 1538h221l218 403h-295z" />
<glyph unicode="&#xca;" horiz-adv-x="951" d="M0 0v1419h901v-301h-553v-246h281l81 -299h-362v-274h553v-299h-901zM67 1538h242l136 153l137 -153h251l-374 466z" />
<glyph unicode="&#xcb;" horiz-adv-x="951" d="M0 0v1419h901v-301h-553v-246h281l81 -299h-362v-274h553v-299h-901zM4 1720q0 48 25 89q24 40 65 66q40 25 88 25q80 0 132 -52q53 -53 53 -128q0 -50 -24 -91q-24 -42 -67 -66t-94 -24q-49 0 -89 25q-42 26 -65 67q-24 42 -24 89zM534 1720q0 48 25 89q24 40 65 66 q40 25 88 25q80 0 132 -52q53 -53 53 -128q0 -50 -24 -91q-24 -42 -67 -66t-94 -24q-49 0 -89 25q-42 26 -65 67q-24 42 -24 89z" />
<glyph unicode="&#xcc;" horiz-adv-x="517" d="M0 1939l218 -403h221l-144 403h-295zM119 1v1417h348v-1418z" />
<glyph unicode="&#xcd;" horiz-adv-x="517" d="M0 1v1417h348v-1418zM28 1536h221l218 403h-295z" />
<glyph unicode="&#xce;" horiz-adv-x="816" d="M0 1539h242l136 153l136 -153h252l-375 467zM209 1v1417h348v-1418z" />
<glyph unicode="&#xcf;" horiz-adv-x="943" d="M0 1717q0 48 25 89q24 40 65 66q40 25 88 25q80 0 132 -52q53 -53 53 -128q0 -50 -24 -91q-24 -42 -67 -66t-94 -24q-49 0 -89 25q-42 26 -65 67q-24 42 -24 89zM267 1v1417h348v-1418zM530 1717q0 48 25 89q24 40 65 66q40 25 88 25q80 0 132 -52q53 -53 53 -128 q0 -50 -24 -91q-24 -42 -67 -66t-94 -24q-49 0 -89 25q-42 26 -65 67q-24 42 -24 89z" />
<glyph unicode="&#xd0;" horiz-adv-x="1460" d="M0 570v281h153v569h507q156 0 292 -54q134 -53 239 -149q101 -94 161 -227q58 -131 58 -280t-58 -278q-60 -133 -161 -227q-103 -96 -240 -150q-136 -54 -291 -54h-507v569h-153zM515 300h113q86 0 164 33q77 33 135 91q59 59 90 132q31 72 31 154q0 78 -32 156 q-33 75 -88 130q-54 54 -135 89q-79 33 -165 33h-113v-267h148v-281h-148v-270z" />
<glyph unicode="&#xd1;" horiz-adv-x="1302" d="M0 3l4 1416l900 -655v655l348 -2l-4 -1418l-899 735l1 -731h-350zM221 1539q10 125 88 215q76 88 191 88q68 0 186 -23q123 -48 156 -48q68 0 92 98h165q-22 -149 -89 -232q-66 -82 -203 -82q-54 0 -169 44q-105 45 -152 45q-37 0 -65 -31q-30 -32 -36 -74h-164z" />
<glyph unicode="&#xd2;" horiz-adv-x="1549" d="M0 709q0 202 101 374q100 169 274 270q173 99 375 99q203 0 375 -99q173 -100 273 -270q101 -172 101 -374q0 -203 -101 -373q-100 -171 -273 -270q-172 -99 -375 -99q-202 0 -375 99q-174 100 -274 270q-101 170 -101 373zM348 709q0 -107 55 -204q55 -99 146 -157 q92 -59 201 -59q108 0 200 59q91 58 147 157q54 98 54 204q0 107 -54 204t-146 156q-94 59 -201 59q-109 0 -201 -59q-93 -58 -147 -156q-54 -97 -54 -204zM457 1940l218 -403h221l-144 403h-295z" />
<glyph unicode="&#xd3;" horiz-adv-x="1549" d="M0 709q0 202 101 374q100 169 274 270q173 99 375 99q203 0 375 -99q173 -100 273 -270q101 -172 101 -374q0 -203 -101 -373q-100 -171 -273 -270q-172 -99 -375 -99q-202 0 -375 99q-174 100 -274 270q-101 170 -101 373zM348 709q0 -107 55 -204q55 -99 146 -157 q92 -59 201 -59q108 0 200 59q91 58 147 157q54 98 54 204q0 107 -54 204t-146 156q-94 59 -201 59q-109 0 -201 -59q-93 -58 -147 -156q-54 -97 -54 -204zM672 1537h221l218 403h-295z" />
<glyph unicode="&#xd4;" horiz-adv-x="1549" d="M0 709q0 202 101 374q100 169 274 270q173 99 375 99q203 0 375 -99q173 -100 273 -270q101 -172 101 -374q0 -203 -101 -373q-100 -171 -273 -270q-172 -99 -375 -99q-202 0 -375 99q-174 100 -274 270q-101 170 -101 373zM348 709q0 -107 55 -204q55 -99 146 -157 q92 -59 201 -59q108 0 200 59q91 58 147 157q54 98 54 204q0 107 -54 204t-146 156q-94 59 -201 59q-109 0 -201 -59q-93 -58 -147 -156q-54 -97 -54 -204zM367 1537h241l136 153l137 -153h251l-374 467z" />
<glyph unicode="&#xd5;" horiz-adv-x="1549" d="M0 709q0 202 101 374q100 169 274 270q173 99 375 99q203 0 375 -99q173 -100 273 -270q101 -172 101 -374q0 -203 -101 -373q-100 -171 -273 -270q-172 -99 -375 -99q-202 0 -375 99q-174 100 -274 270q-101 170 -101 373zM311 1539q10 126 87 215q76 88 191 88 q67 0 187 -23q123 -48 155 -48q67 0 93 98h165q-22 -149 -89 -232q-67 -82 -204 -82q-54 0 -169 44q-103 45 -151 45q-37 0 -65 -31q-30 -31 -37 -74h-163zM348 709q0 -107 55 -204q55 -99 146 -157q92 -59 201 -59q108 0 200 59q91 58 147 157q54 98 54 204q0 107 -54 204 t-146 156q-94 59 -201 59q-109 0 -201 -59q-93 -58 -147 -156q-54 -97 -54 -204z" />
<glyph unicode="&#xd6;" horiz-adv-x="1549" d="M0 709q0 202 101 374q100 169 274 270q173 99 375 99q203 0 375 -99q173 -100 273 -270q101 -172 101 -374q0 -203 -101 -373q-100 -171 -273 -270q-172 -99 -375 -99q-202 0 -375 99q-174 100 -274 270q-101 170 -101 373zM303 1718q0 48 25 89q24 40 65 66q40 25 88 25 q80 0 132 -52q53 -53 53 -128q0 -50 -24 -91q-24 -42 -67 -66t-94 -24q-49 0 -89 25q-42 26 -65 67q-24 42 -24 89zM348 709q0 -107 55 -204q55 -99 146 -157q92 -59 201 -59q108 0 200 59q91 58 147 157q54 98 54 204q0 107 -54 204t-146 156q-94 59 -201 59 q-109 0 -201 -59q-93 -58 -147 -156q-54 -97 -54 -204zM833 1718q0 48 25 89q24 40 65 66q40 25 88 25q80 0 132 -52q53 -53 53 -128q0 -50 -24 -91q-24 -42 -67 -66t-94 -24q-49 0 -89 25q-42 26 -65 67q-24 42 -24 89z" />
<glyph unicode="&#xd7;" horiz-adv-x="981" d="M0 823l177 176l289 -288l284 285l178 -178l-285 -284l288 -289l-176 -177l-289 289l-285 -286l-178 178l286 285z" />
<glyph unicode="&#xd8;" horiz-adv-x="1549" d="M0 709q0 202 101 374q100 169 274 270q173 99 375 99q203 0 375 -99q32 -19 60 -39l142 150l116 -110l-138 -146q52 -56 93 -125q101 -172 101 -374q0 -203 -101 -373q-100 -171 -273 -270q-172 -99 -375 -99q-202 0 -375 99q-54 31 -93 62l-140 -148l-116 110l142 150 q-36 42 -67 96q-101 170 -101 373zM348 709q0 -107 55 -204q2 -7 6 -11l543 574l-1 1q-94 59 -201 59q-109 0 -201 -59q-93 -58 -147 -156q-54 -97 -54 -204zM514 373q11 -9 35 -25q92 -59 201 -59q108 0 200 59q91 58 147 157q54 98 54 204q0 107 -54 204q-18 30 -29 45z " />
<glyph unicode="&#xd9;" horiz-adv-x="1216" d="M0 467v952l349 -1v-851q0 -83 19 -143q20 -63 68 -98q47 -37 130 -37q155 0 204 91q48 92 48 263v776l348 -1v-926q0 -161 -78 -280q-78 -120 -215 -182q-138 -63 -316 -63q-167 0 -292 54q-126 54 -195 166q-70 112 -70 280zM290 1940l218 -403h221l-144 403h-295z" />
<glyph unicode="&#xda;" horiz-adv-x="1216" d="M0 467v952l349 -1v-851q0 -83 19 -143q20 -63 68 -98q47 -37 130 -37q155 0 204 91q48 92 48 263v776l348 -1v-926q0 -161 -78 -280q-78 -120 -215 -182q-138 -63 -316 -63q-167 0 -292 54q-126 54 -195 166q-70 112 -70 280zM509 1567h221l218 403h-295z" />
<glyph unicode="&#xdb;" horiz-adv-x="1216" d="M0 467v952l349 -1v-851q0 -83 19 -143q20 -63 68 -98q47 -37 130 -37q155 0 204 91q48 92 48 263v776l348 -1v-926q0 -161 -78 -280q-78 -120 -215 -182q-138 -63 -316 -63q-167 0 -292 54q-126 54 -195 166q-70 112 -70 280zM210 1537h242l136 153l136 -153h252 l-375 467z" />
<glyph unicode="&#xdc;" horiz-adv-x="1216" d="M0 467v952l349 -1v-851q0 -83 19 -143q20 -63 68 -98q47 -37 130 -37q155 0 204 91q48 92 48 263v776l348 -1v-926q0 -161 -78 -280q-78 -120 -215 -182q-138 -63 -316 -63q-167 0 -292 54q-126 54 -195 166q-70 112 -70 280zM137 1719q0 48 25 89q24 40 65 66 q40 25 88 25q80 0 132 -52q53 -53 53 -128q0 -50 -24 -91q-24 -42 -67 -66t-94 -24q-49 0 -89 25q-42 26 -65 67q-24 42 -24 89zM667 1719q0 48 25 89q24 40 65 66q40 25 88 25q80 0 132 -52q53 -53 53 -128q0 -50 -24 -91q-24 -42 -67 -66t-94 -24q-49 0 -89 25 q-42 26 -65 67q-24 42 -24 89z" />
<glyph unicode="&#xdd;" horiz-adv-x="1300" d="M0 1419l446 -765v-654h368v657l436 762h-404l-219 -419l-220 419h-407zM509 1536h221l218 403h-295z" />
<glyph unicode="&#xde;" horiz-adv-x="1193" d="M0 1v1417h348v-189h333q141 0 247 -69q105 -68 161 -189q54 -121 54 -274q0 -142 -47 -253q-48 -112 -148 -173q-101 -62 -247 -62h-353v-209zM348 556h271q60 0 107 14q44 14 68 45q24 32 24 90q0 109 -64 143t-198 34h-208v-326z" />
<glyph unicode="&#xdf;" horiz-adv-x="1131" d="M0 -1l311 -1l-1 969v83h1v10q1 3 1 5q1 14 5 23l6 22q23 55 67 86q47 34 106 34q187 -10 198 -193q20 -204 -252 -204v-235l15 1h13q17 0 25 1h52q95 0 150 -28t55 -111t-50 -124q-52 -41 -129 -41q-74 0 -126 34q-17 11 -32 23v-332q81 -26 160 -26q100 0 188 25 q88 23 163 77q72 53 114 135q41 82 41 194q0 65 -22 125t-63 110q-40 48 -97 81q66 60 95 119q29 63 29 146q0 121 -43 203q-43 81 -120 163q-124 129 -334 132h-51q-93 0 -186 -34q-102 -38 -159 -98q-129 -133 -129 -320z" />
<glyph unicode="&#xe0;" d="M0 518q0 -155 81 -281q80 -124 216 -196q136 -71 289 -71q116 0 222 41q15 5 47 19v-30l317 -3l1 521q0 117 -47 218q-46 98 -130 174q-80 74 -188 114t-222 40q-115 0 -222 -41q-107 -39 -188 -113q-82 -74 -129 -174q-47 -101 -47 -218zM303 1560l218 -403h221 l-144 403h-295zM319 518q0 70 37 129t99 94q62 34 131 34q71 0 132 -34q62 -35 99 -94t37 -129q0 -106 -80 -183q-79 -76 -188 -76q-108 0 -187 76q-80 77 -80 183z" />
<glyph unicode="&#xe1;" d="M0 518q0 -155 81 -281q80 -124 216 -196q136 -71 289 -71q116 0 222 41q15 5 47 19v-30l317 -3l1 521q0 117 -47 218q-46 98 -130 174q-80 74 -188 114t-222 40q-115 0 -222 -41q-107 -39 -188 -113q-82 -74 -129 -174q-47 -101 -47 -218zM319 518q0 70 37 129t99 94 q62 34 131 34q71 0 132 -34q62 -35 99 -94t37 -129q0 -106 -80 -183q-79 -76 -188 -76q-108 0 -187 76q-80 77 -80 183zM478 1157h221l218 403h-295z" />
<glyph unicode="&#xe2;" d="M0 518q0 -155 81 -281q80 -124 216 -196q136 -71 289 -71q116 0 222 41q15 5 47 19v-30l317 -3l1 521q0 117 -47 218q-46 98 -130 174q-80 74 -188 114t-222 40q-115 0 -222 -41q-107 -39 -188 -113q-82 -74 -129 -174q-47 -101 -47 -218zM239 1157h241l136 153l137 -153 h251l-374 467zM319 518q0 70 37 129t99 94q62 34 131 34q71 0 132 -34q62 -35 99 -94t37 -129q0 -106 -80 -183q-79 -76 -188 -76q-108 0 -187 76q-80 77 -80 183z" />
<glyph unicode="&#xe3;" d="M0 518q0 -155 81 -281q80 -124 216 -196q136 -71 289 -71q116 0 222 41q15 5 47 19v-30l317 -3l1 521q0 117 -47 218q-46 98 -130 174q-80 74 -188 114t-222 40q-115 0 -222 -41q-107 -39 -188 -113q-82 -74 -129 -174q-47 -101 -47 -218zM161 1158q10 126 87 215 q76 88 191 88q67 0 187 -23q123 -48 155 -48q67 0 93 98h165q-22 -149 -89 -232q-67 -82 -204 -82q-54 0 -169 44q-103 45 -151 45q-37 0 -65 -31q-30 -31 -37 -74h-163zM319 518q0 70 37 129t99 94q62 34 131 34q71 0 132 -34q62 -35 99 -94t37 -129q0 -106 -80 -183 q-79 -76 -188 -76q-108 0 -187 76q-80 77 -80 183z" />
<glyph unicode="&#xe4;" d="M0 518q0 -155 81 -281q80 -124 216 -196q136 -71 289 -71q116 0 222 41q15 5 47 19v-30l317 -3l1 521q0 117 -47 218q-46 98 -130 174q-80 74 -188 114t-222 40q-115 0 -222 -41q-107 -39 -188 -113q-82 -74 -129 -174q-47 -101 -47 -218zM131 1338q0 48 25 89 q24 40 65 66q40 25 88 25q80 0 132 -52q53 -53 53 -128q0 -50 -24 -91q-24 -42 -67 -66t-94 -24q-49 0 -89 25q-42 26 -65 67q-24 42 -24 89zM319 518q0 70 37 129t99 94q62 34 131 34q71 0 132 -34q62 -35 99 -94t37 -129q0 -106 -80 -183q-79 -76 -188 -76q-108 0 -187 76 q-80 77 -80 183zM661 1338q0 48 25 89q24 40 65 66q40 25 88 25q80 0 132 -52q53 -53 53 -128q0 -50 -24 -91q-24 -42 -67 -66t-94 -24q-49 0 -89 25q-42 26 -65 67q-24 42 -24 89z" />
<glyph unicode="&#xe5;" d="M0 518q0 -155 81 -281q80 -124 216 -196q136 -71 289 -71q116 0 222 41q15 5 47 19v-30l317 -3l1 521q0 117 -47 218q-46 98 -130 174q-80 74 -188 114t-222 40q-115 0 -222 -41q-107 -39 -188 -113q-82 -74 -129 -174q-47 -101 -47 -218zM319 518q0 70 37 129t99 94 q62 34 131 34q71 0 132 -34q62 -35 99 -94t37 -129q0 -106 -80 -183q-79 -76 -188 -76q-108 0 -187 76q-80 77 -80 183zM382 1384q0 96 67 163t163 67q95 0 162 -67t67 -163q0 -95 -67 -162t-162 -67q-96 0 -163 67t-67 162zM554 1388q0 -24 18 -41q17 -17 41 -17 q23 0 42 17q17 17 17 41q0 25 -17 42q-19 17 -42 17q-24 0 -41 -17q-18 -16 -18 -42z" />
<glyph unicode="&#xe6;" horiz-adv-x="1806" d="M0 324q0 -148 117 -264q116 -116 427 -87q173 15 275 149q44 -38 98 -69q128 -73 277 -73q110 0 212 41q76 32 150 94l-172 252l-2 -2l-3 -4l-3 -4l-2 -2q-76 -78 -180 -78q-103 0 -180 78q-61 62 -73 149h688v2h124l2 18q1 5 1 11v9q0 119 -45 222q-45 104 -124 180 q-80 77 -181 117q-102 41 -212 41t-213 -41q-83 -33 -149 -90l-12 12q-119 113 -322 113q-225 0 -377 -69v-283q190 100 318 85q75 0 121 -32q45 -33 45 -84l-254 -34q-351 -49 -351 -357zM363 352q0 68 86 83l115 16v-31q0 -65 -33 -106q-33 -40 -87 -40q-39 0 -60 22 q-21 21 -21 56zM998 708q34 42 70 64q59 35 126 35t126 -35q36 -22 70 -64h-392z" />
<glyph unicode="&#xe7;" horiz-adv-x="1015" d="M0 514q0 131 43 238q44 109 121 186q76 76 185 120q108 42 233 42q102 0 199 -33q98 -35 173 -96l-166 -234q-43 37 -94 55q-53 19 -112 19q-110 0 -186 -73q-77 -74 -77 -183q0 -84 33 -152q32 -68 95 -107q61 -40 141 -40q118 0 202 78l175 -230q-38 -42 -106 -74 q-69 -32 -142 -47q-60 -13 -110 -15l-22 -35q37 -13 70 -51q35 -41 35 -89q0 -71 -74 -121q-70 -48 -171 -48q-87 0 -170 46l71 92q47 -36 99 -36q48 0 80 22q29 20 29 45q0 26 -28 45q-30 21 -105 24l55 113q-112 17 -201 68q-133 77 -204 201q-71 125 -71 270z" />
<glyph unicode="&#xe8;" horiz-adv-x="1174" d="M0 519q0 -156 78 -281q76 -125 207 -197q128 -71 277 -71q110 0 212 40q76 31 150 91l-172 246l-2 -3l-3 -3l-3 -4l-2 -2q-76 -76 -180 -76q-103 0 -180 76q-61 61 -73 145h688v2h124l2 17q1 6 1 11v9q0 115 -45 216q-45 102 -124 175q-80 75 -181 114q-102 40 -212 40 t-213 -40q-100 -39 -180 -115q-79 -74 -124 -174q-45 -99 -45 -216zM269 1561l218 -403h221l-144 403h-295zM366 679q34 40 70 62q59 34 126 34t126 -34q36 -22 70 -62h-392z" />
<glyph unicode="&#xe9;" horiz-adv-x="1174" d="M0 519q0 -156 78 -281q76 -125 207 -197q128 -71 277 -71q110 0 212 40q76 31 150 91l-172 246l-2 -3l-3 -3l-3 -4l-2 -2q-76 -76 -180 -76q-103 0 -180 76q-61 61 -73 145h688v2h124l2 17q1 6 1 11v9q0 115 -45 216q-45 102 -124 175q-80 75 -181 114q-102 40 -212 40 t-213 -40q-100 -39 -180 -115q-79 -74 -124 -174q-45 -99 -45 -216zM366 679q34 40 70 62q59 34 126 34t126 -34q36 -22 70 -62h-392zM454 1158h221l218 403h-295z" />
<glyph unicode="&#xea;" horiz-adv-x="1174" d="M0 519q0 -156 78 -281q76 -125 207 -197q128 -71 277 -71q110 0 212 40q76 31 150 91l-172 246l-2 -3l-3 -3l-3 -4l-2 -2q-76 -76 -180 -76q-103 0 -180 76q-61 61 -73 145h688v2h124l2 17q1 6 1 11v9q0 115 -45 216q-45 102 -124 175q-80 75 -181 114q-102 40 -212 40 t-213 -40q-100 -39 -180 -115q-79 -74 -124 -174q-45 -99 -45 -216zM179 1158h242l136 153l136 -153h252l-375 467zM366 679q34 40 70 62q59 34 126 34t126 -34q36 -22 70 -62h-392z" />
<glyph unicode="&#xeb;" horiz-adv-x="1174" d="M0 519q0 -156 78 -281q76 -125 207 -197q128 -71 277 -71q110 0 212 40q76 31 150 91l-172 246l-2 -3l-3 -3l-3 -4l-2 -2q-76 -76 -180 -76q-103 0 -180 76q-61 61 -73 145h688v2h124l2 17q1 6 1 11v9q0 115 -45 216q-45 102 -124 175q-80 75 -181 114q-102 40 -212 40 t-213 -40q-100 -39 -180 -115q-79 -74 -124 -174q-45 -99 -45 -216zM116 1338q0 48 25 89q24 40 65 66q40 25 88 25q80 0 132 -52q53 -53 53 -128q0 -50 -24 -91q-24 -42 -67 -66t-94 -24q-49 0 -89 25q-42 26 -65 67q-24 42 -24 89zM366 679q34 40 70 62q59 34 126 34 t126 -34q36 -22 70 -62h-392zM646 1338q0 48 25 89q24 40 65 66q40 25 88 25q80 0 132 -52q53 -53 53 -128q0 -50 -24 -91q-24 -42 -67 -66t-94 -24q-49 0 -89 25q-42 26 -65 67q-24 42 -24 89z" />
<glyph unicode="&#xec;" horiz-adv-x="525" d="M0 1562l218 -403h221l-144 403h-295zM156 -2v1024l319 -3v-1020z" />
<glyph unicode="&#xed;" horiz-adv-x="521" d="M0 -2v1024l319 -3v-1020zM32 1159h221l218 403h-295z" />
<glyph unicode="&#xee;" horiz-adv-x="815" d="M0 1156h241l136 153l137 -153h251l-374 467zM223 -2v1024l319 -3v-1020z" />
<glyph unicode="&#xef;" horiz-adv-x="943" d="M0 1340q0 48 25 89q24 40 65 66q40 25 88 25q80 0 132 -52q53 -53 53 -128q0 -50 -24 -91q-24 -42 -67 -66t-94 -24q-49 0 -89 25q-42 26 -65 67q-24 42 -24 89zM267 -2v1024l319 -3v-1020zM530 1340q0 48 25 89q24 40 65 66q40 25 88 25q80 0 132 -52q53 -53 53 -128 q0 -50 -24 -91q-24 -42 -67 -66t-94 -24q-49 0 -89 25q-42 26 -65 67q-24 42 -24 89z" />
<glyph unicode="&#xf0;" d="M0 535q0 120 47 225q47 104 129 180q83 77 189 119q101 39 246 48q-49 67 -97 112l-72 -91l-88 69l79 100q-54 40 -114 59l98 140q50 -25 122 -65l90 113l88 -69l-81 -102q489 -313 531 -756q6 -40 6 -82q0 -123 -46 -225q-46 -103 -130 -182q-85 -79 -189 -119 q-105 -42 -222 -42q-153 0 -289 74t-216 203q-81 131 -81 291zM319 535q0 -110 80 -190q79 -79 187 -79q109 0 188 79q80 80 80 190q0 72 -37 133t-99 97q-61 36 -132 36q-69 0 -131 -36t-99 -97t-37 -133z" />
<glyph unicode="&#xf1;" horiz-adv-x="952" d="M0 0h320v621q0 160 122 164h18q122 -4 122 -164v-621h320v621q0 422 -442 444h-18q-442 -22 -442 -444v-621zM0 1158q10 125 88 215q76 88 191 88q68 0 186 -23q123 -48 156 -48q68 0 92 98h165q-22 -149 -89 -232q-66 -82 -203 -82q-54 0 -169 44q-105 45 -152 45 q-37 0 -65 -31q-30 -32 -36 -74h-164z" />
<glyph unicode="&#xf2;" d="M0 518q0 117 47 218t129 175q83 75 189 115q108 40 221 40q114 0 222 -40q105 -38 189 -114q83 -76 129 -176q47 -101 47 -218q0 -119 -46 -218q-46 -100 -130 -177q-85 -76 -189 -115q-105 -41 -222 -41q-153 0 -289 72t-216 197q-81 126 -81 282zM294 1561l218 -403 h221l-144 403h-295zM319 518q0 -107 80 -184q79 -77 187 -77q109 0 188 77q80 77 80 184q0 70 -37 129t-99 94q-61 35 -132 35q-69 0 -131 -35t-99 -94t-37 -129z" />
<glyph unicode="&#xf3;" d="M0 518q0 117 47 218t129 175q83 75 189 115q108 40 221 40q114 0 222 -40q105 -38 189 -114q83 -76 129 -176q47 -101 47 -218q0 -119 -46 -218q-46 -100 -130 -177q-85 -76 -189 -115q-105 -41 -222 -41q-153 0 -289 72t-216 197q-81 126 -81 282zM319 518 q0 -107 80 -184q79 -77 187 -77q109 0 188 77q80 77 80 184q0 70 -37 129t-99 94q-61 35 -132 35q-69 0 -131 -35t-99 -94t-37 -129zM485 1158h221l218 403h-295z" />
<glyph unicode="&#xf4;" d="M0 518q0 117 47 218t129 175q83 75 189 115q108 40 221 40q114 0 222 -40q105 -38 189 -114q83 -76 129 -176q47 -101 47 -218q0 -119 -46 -218q-46 -100 -130 -177q-85 -76 -189 -115q-105 -41 -222 -41q-153 0 -289 72t-216 197q-81 126 -81 282zM204 1156h241l136 153 l137 -153h251l-374 467zM319 518q0 -107 80 -184q79 -77 187 -77q109 0 188 77q80 77 80 184q0 70 -37 129t-99 94q-61 35 -132 35q-69 0 -131 -35t-99 -94t-37 -129z" />
<glyph unicode="&#xf5;" d="M0 518q0 117 47 218t129 175q83 75 189 115q108 40 221 40q114 0 222 -40q105 -38 189 -114q83 -76 129 -176q47 -101 47 -218q0 -119 -46 -218q-46 -100 -130 -177q-85 -76 -189 -115q-105 -41 -222 -41q-153 0 -289 72t-216 197q-81 126 -81 282zM148 1158 q10 126 87 215q76 88 191 88q67 0 187 -23q123 -48 155 -48q67 0 93 98h165q-22 -149 -89 -232q-67 -82 -204 -82q-54 0 -169 44q-103 45 -151 45q-37 0 -65 -31q-30 -31 -37 -74h-163zM319 518q0 -107 80 -184q79 -77 187 -77q109 0 188 77q80 77 80 184q0 70 -37 129 t-99 94q-61 35 -132 35q-69 0 -131 -35t-99 -94t-37 -129z" />
<glyph unicode="&#xf6;" d="M0 518q0 117 47 218t129 175q83 75 189 115q108 40 221 40q114 0 222 -40q105 -38 189 -114q83 -76 129 -176q47 -101 47 -218q0 -119 -46 -218q-46 -100 -130 -177q-85 -76 -189 -115q-105 -41 -222 -41q-153 0 -289 72t-216 197q-81 126 -81 282zM140 1340q0 48 25 89 q24 40 65 66q40 25 88 25q80 0 132 -52q53 -53 53 -128q0 -50 -24 -91q-24 -42 -67 -66t-94 -24q-49 0 -89 25q-42 26 -65 67q-24 42 -24 89zM319 518q0 -107 80 -184q79 -77 187 -77q109 0 188 77q80 77 80 184q0 70 -37 129t-99 94q-61 35 -132 35q-69 0 -131 -35t-99 -94 t-37 -129zM670 1340q0 48 25 89q24 40 65 66q40 25 88 25q80 0 132 -52q53 -53 53 -128q0 -50 -24 -91q-24 -42 -67 -66t-94 -24q-49 0 -89 25q-42 26 -65 67q-24 42 -24 89z" />
<glyph unicode="&#xf7;" horiz-adv-x="1107" d="M0 407v252h1057v-252h-1057zM340 176q0 48 25 89q24 40 65 66q40 25 88 25q80 0 132 -52q53 -53 53 -128q0 -50 -24 -91q-24 -42 -67 -66t-94 -24q-49 0 -89 25q-42 26 -65 67q-24 42 -24 89zM340 886q0 48 25 89q24 40 65 66q40 25 88 25q80 0 132 -52q53 -53 53 -128 q0 -50 -24 -91q-24 -42 -67 -66t-94 -24q-49 0 -89 25q-42 26 -65 67q-24 42 -24 89z" />
<glyph unicode="&#xf8;" horiz-adv-x="1233" d="M0 58l129 125q-22 29 -38 53q-81 127 -81 283q0 117 47 218t129 175q83 75 189 116q108 40 221 40q114 0 222 -40q63 -24 116 -58l125 121l114 -110l-120 -116q50 -58 83 -128q47 -101 47 -218q0 -120 -46 -219q-46 -100 -130 -177q-85 -77 -189 -116q-105 -41 -222 -41 q-153 0 -289 72q-32 16 -62 37l-131 -127zM329 519q0 -62 26 -114l356 346q-55 26 -115 26q-69 0 -131 -35t-99 -94t-37 -129zM466 291q59 -34 130 -34q109 0 188 77q80 78 80 185q0 68 -36 126z" />
<glyph unicode="&#xf9;" horiz-adv-x="952" d="M0 428q0 -435 442 -459h18q442 24 442 459v596h-320v-596q0 -165 -122 -169h-18q-122 4 -122 169v596h-320v-596zM138 1560l218 -403h221l-144 403h-295z" />
<glyph unicode="&#xfa;" horiz-adv-x="952" d="M0 428q0 -435 442 -459h18q442 24 442 459v596h-320v-596q0 -165 -122 -169h-18q-122 4 -122 169v596h-320v-596zM338 1159h221l218 403h-295z" />
<glyph unicode="&#xfb;" horiz-adv-x="952" d="M0 428q0 -435 442 -459h18q442 24 442 459v596h-320v-596q0 -165 -122 -169h-18q-122 4 -122 169v596h-320v-596zM72 1158h242l136 153l136 -153h252l-375 467z" />
<glyph unicode="&#xfc;" horiz-adv-x="953" d="M0 428q0 -435 442 -459h18q442 24 442 459v596h-320v-596q0 -165 -122 -169h-18q-122 4 -122 169v596h-320v-596zM10 1338q0 48 25 89q24 40 65 66q40 25 88 25q80 0 132 -52q53 -53 53 -128q0 -50 -24 -91q-24 -42 -67 -66t-94 -24q-49 0 -89 25q-42 26 -65 67 q-24 42 -24 89zM540 1338q0 48 25 89q24 40 65 66q40 25 88 25q80 0 132 -52q53 -53 53 -128q0 -50 -24 -91q-24 -42 -67 -66t-94 -24q-49 0 -89 25q-42 26 -65 67q-24 42 -24 89z" />
<glyph unicode="&#xfd;" horiz-adv-x="1038" d="M0 -287q20 -68 104 -154q129 -128 343 -132h53q96 0 191 34q105 38 165 98q132 134 132 320v1144l-320 -1v-594q0 -90 -42 -137q-44 -47 -117 -47q-76 0 -118 46q-42 47 -42 138v595h-320v-617q0 -481 473 -451q121 0 168 44v-117h-1v-10q-1 -3 -1 -5q-1 -14 -5 -23 l-2 -7l-2 -7l-2 -5l-1 -3q-23 -55 -69 -86q-49 -34 -108 -34q-76 0 -131 52t-59 128zM396 1159h221l218 403h-295z" />
<glyph unicode="&#xfe;" horiz-adv-x="1224" d="M0 1419l1 -1802l319 -1v381l22 -10l23 -10q108 -41 222 -41t222 41t188 119q84 78 130 180q47 105 47 225t-47 225q-46 104 -130 182q-82 78 -188 120q-106 41 -222 41q-143 0 -271 -65v415h-316zM320 501q0 110 80 190q79 79 187 79q109 0 188 -79q80 -80 80 -190 q0 -72 -37 -133t-99 -97q-61 -36 -132 -36q-69 0 -131 36t-99 97t-37 133z" />
<glyph unicode="&#xff;" horiz-adv-x="1038" d="M0 -287q20 -68 104 -154q129 -128 343 -132h53q96 0 191 34q105 38 165 98q132 134 132 320v1144l-320 -1v-594q0 -90 -42 -137q-44 -47 -117 -47q-76 0 -118 46q-42 47 -42 138v595h-320v-617q0 -481 473 -451q121 0 168 44v-117h-1v-10q-1 -3 -1 -5q-1 -14 -5 -23 l-2 -7l-2 -7l-2 -5l-1 -3q-23 -55 -69 -86q-49 -34 -108 -34q-76 0 -131 52t-59 128zM72 1339q0 48 25 89q24 40 65 66q40 25 88 25q80 0 132 -52q53 -53 53 -128q0 -50 -24 -91q-24 -42 -67 -66t-94 -24q-49 0 -89 25q-42 26 -65 67q-24 42 -24 89zM602 1339q0 48 25 89 q24 40 65 66q40 25 88 25q80 0 132 -52q53 -53 53 -128q0 -50 -24 -91q-24 -42 -67 -66t-94 -24q-49 0 -89 25q-42 26 -65 67q-24 42 -24 89z" />
<glyph unicode="&#x152;" horiz-adv-x="2037" d="M0 709q0 202 101 374q100 169 274 270q173 99 375 99q117 0 223 -33h1014v-301h-553v-246h281l81 -299h-362v-274h553v-299h-1014q-106 -33 -223 -33q-202 0 -375 99q-174 100 -274 270q-101 170 -101 373zM328 709q0 -107 55 -204q55 -99 146 -157q92 -59 201 -59 q108 0 200 59q91 58 147 157q54 98 54 204q0 107 -54 204t-146 156q-94 59 -201 59q-109 0 -201 -59q-93 -58 -147 -156q-54 -97 -54 -204z" />
<glyph unicode="&#x153;" horiz-adv-x="2042" d="M0 517q0 117 47 219q47 100 129 174q83 75 189 115q108 40 221 40q114 0 222 -40q105 -38 189 -114q11 -12 23 -22l17 16q80 76 180 114q103 40 213 40t212 -40q101 -38 181 -113q79 -73 124 -174t45 -216v-8q0 -6 -1 -11l-2 -17h-124v-2h-688q12 -84 73 -145 q77 -75 180 -75q104 0 180 75l2 3l3 3l3 4l2 2l172 -244q-74 -60 -150 -91q-102 -40 -212 -40q-149 0 -277 71q-77 42 -135 102l-21 -20q-85 -76 -189 -115q-105 -41 -222 -41q-153 0 -289 72q-136 71 -216 196q-81 127 -81 282zM319 517q0 -106 80 -184q79 -76 187 -76 q109 0 188 76q80 78 80 184q0 71 -37 129q-37 59 -99 94q-61 35 -132 35q-69 0 -131 -35t-99 -94q-37 -58 -37 -129zM1234 675h392q-34 41 -70 62q-59 34 -126 34t-126 -34q-36 -21 -70 -62z" />
<glyph unicode="&#x178;" horiz-adv-x="1300" d="M0 1419l446 -765v-654h368v657l436 762h-404l-219 -419l-220 419h-407zM189 1718q0 48 25 89q24 40 65 66q40 25 88 25q80 0 132 -52q53 -53 53 -128q0 -50 -24 -91q-24 -42 -67 -66t-94 -24q-49 0 -89 25q-42 26 -65 67q-24 42 -24 89zM719 1718q0 48 25 89q24 40 65 66 q40 25 88 25q80 0 132 -52q53 -53 53 -128q0 -50 -24 -91q-24 -42 -67 -66t-94 -24q-49 0 -89 25q-42 26 -65 67q-24 42 -24 89z" />
<glyph unicode="&#x2c6;" horiz-adv-x="816" d="M0 1186h242l136 153l136 -153h252l-375 467z" />
<glyph unicode="&#x2dc;" horiz-adv-x="928" d="M0 1290q10 125 88 215q76 88 191 88q68 0 186 -23q123 -48 156 -48q68 0 92 98h165q-22 -149 -89 -232q-66 -82 -203 -82q-54 0 -169 44q-105 45 -152 45q-37 0 -65 -31q-30 -32 -36 -74h-164z" />
<glyph unicode="&#x2000;" horiz-adv-x="1003" />
<glyph unicode="&#x2001;" horiz-adv-x="2006" />
<glyph unicode="&#x2002;" horiz-adv-x="1003" />
<glyph unicode="&#x2003;" horiz-adv-x="2006" />
<glyph unicode="&#x2004;" horiz-adv-x="668" />
<glyph unicode="&#x2005;" horiz-adv-x="501" />
<glyph unicode="&#x2006;" horiz-adv-x="334" />
<glyph unicode="&#x2007;" horiz-adv-x="334" />
<glyph unicode="&#x2008;" horiz-adv-x="250" />
<glyph unicode="&#x2009;" horiz-adv-x="401" />
<glyph unicode="&#x200a;" horiz-adv-x="111" />
<glyph unicode="&#x2010;" horiz-adv-x="682" d="M0 567h632v274h-632v-274z" />
<glyph unicode="&#x2011;" horiz-adv-x="682" d="M0 567h632v274h-632v-274z" />
<glyph unicode="&#x2012;" horiz-adv-x="682" d="M0 567h632v274h-632v-274z" />
<glyph unicode="&#x2013;" horiz-adv-x="888" d="M0 563l2 251h835l1 -251h-838z" />
<glyph unicode="&#x2014;" horiz-adv-x="1157" d="M0 563l2 251h1104l1 -251h-1107z" />
<glyph unicode="&#x2018;" horiz-adv-x="417" d="M14 1419v114q-14 252 281 297l1 -99q-46 -12 -77 -28q55 -7 97 -48q47 -47 50 -111l1 -125h-353z" />
<glyph unicode="&#x2019;" horiz-adv-x="417" d="M0 1705v125h353v-114q14 -252 -281 -297l-1 99q46 12 77 28q-55 7 -97 48q-46 47 -51 111z" />
<glyph unicode="&#x201a;" horiz-adv-x="417" d="M0 188v125h353v-114q14 -252 -281 -297l-1 99q46 12 77 28q-55 7 -97 48q-46 47 -51 111z" />
<glyph unicode="&#x201c;" horiz-adv-x="817" d="M14 1239v114q-14 252 281 297l1 -99q-46 -12 -77 -28q55 -7 97 -48q47 -47 50 -111l1 -125h-353zM414 1239v114q-14 252 281 297l1 -99q-46 -12 -77 -28q55 -7 97 -48q47 -47 50 -111l1 -125h-353z" />
<glyph unicode="&#x201d;" horiz-adv-x="817" d="M0 1525v125h353v-114q14 -252 -281 -297l-1 99q46 12 77 28q-55 7 -97 48q-46 47 -51 111zM400 1525v125h353v-114q14 -252 -281 -297l-1 99q46 12 77 28q-55 7 -97 48q-46 47 -51 111z" />
<glyph unicode="&#x201e;" horiz-adv-x="817" d="M0 188v125h353v-114q14 -252 -281 -297l-1 99q46 12 77 28q-55 7 -97 48q-46 47 -51 111zM400 188v125h353v-114q14 -252 -281 -297l-1 99q46 12 77 28q-55 7 -97 48q-46 47 -51 111z" />
<glyph unicode="&#x2022;" horiz-adv-x="381" d="M0 753q0 69 49 118q48 48 116 48q69 0 118 -48q48 -49 48 -118q0 -68 -48 -116q-49 -49 -118 -49q-68 0 -116 49q-49 48 -49 116z" />
<glyph unicode="&#x2026;" horiz-adv-x="1324" d="M0 158q0 49 25 89q26 42 67 65q42 24 89 24t89 -24q41 -25 66 -66q25 -40 25 -88q0 -80 -52 -132q-53 -53 -128 -53q-50 0 -91 24q-42 24 -66 67q-24 44 -24 94zM455 158q0 49 25 89q26 42 67 65q42 24 89 24t89 -24q41 -25 66 -66q25 -40 25 -88q0 -80 -52 -132 q-53 -53 -128 -53q-50 0 -91 24q-42 24 -66 67q-24 44 -24 94zM913 158q0 49 25 89q26 42 67 65q42 24 89 24t89 -24q41 -25 66 -66q25 -40 25 -88q0 -80 -52 -132q-53 -53 -128 -53q-50 0 -91 24q-42 24 -66 67q-24 44 -24 94z" />
<glyph unicode="&#x202f;" horiz-adv-x="401" />
<glyph unicode="&#x2039;" horiz-adv-x="707" d="M0 714l400 -530h257l-400 530l400 531h-257z" />
<glyph unicode="&#x203a;" horiz-adv-x="707" d="M0 184h257l400 530l-400 531h-257l400 -531z" />
<glyph unicode="&#x205f;" horiz-adv-x="501" />
<glyph unicode="&#x20ac;" horiz-adv-x="971" d="M0 490h220q21 -60 49 -110q86 -154 231 -243q146 -89 316 -89q53 0 105 9v300q-48 -19 -105 -19q-92 0 -169 53q-57 38 -98 99h312l55 181h-436q-3 23 -3 45q0 29 4 52h380l55 181h-364q40 56 94 92q80 54 170 54q57 0 105 -19v302q-52 9 -105 9q-170 0 -316 -89 q-146 -92 -231 -244q-26 -46 -47 -105h-168l-54 -181h186q-2 -34 -2 -52q0 -30 1 -45h-131z" />
<glyph unicode="&#x2122;" horiz-adv-x="1030" d="M0 1341l3 130h391v-130h-114v-438h-157v438h-123zM432 905l154 -1l1 252l114 -106l123 110v-255l155 -1l1 567l-279 -222l-268 222z" />
<glyph unicode="&#x25fc;" horiz-adv-x="1025" d="M0 0v1025h1025v-1025h-1025z" />
<glyph unicode="&#xfb01;" horiz-adv-x="1084" d="M-3 1025h176q0 185 64 285q65 101 180 147q114 46 278 40h330v-280h-378v-2q-57 -1 -114 -57q-42 -38 -43 -133h540l-2 -1026l-319 1v751h-217v-750h-319v750h-107z" />
<glyph unicode="&#xfb02;" horiz-adv-x="1059" d="M0 1025h170q1 176 64 275q64 98 180 145q116 45 276 45l319 1v-1491h-319v744l-201 1v-744h-319v750h-98zM485 1025h205l1 177q-128 -11 -161 -41q-38 -35 -45 -136z" />
</font>
</defs>
</svg>
